《白兰的四个男人/水中共舞》( Bal na vodi/Hey Babu Riba / Бал на води / Dancing in Water)   1987
Posted by Anonymous Monday,1 December 2014 04:12:00
简介: 
《白兰的四个男人 / 水中共舞》( Bal na vodi / Hey Babu Riba / Бал на води / Dancing in Water)   1987
导演: Jovan Acin
编剧: Jovan Acin
主演: Gala Videnovic / Relja Basic / Nebojsa Bakocevic
类型: 剧情 / 爱情
制片国家/地区: 南斯拉夫
语言: 塞尔维亚-克罗埃西亚语
上映日期: 1987-09-11
片长: 112 分钟
IMDb链接(7.7分): http://www.imdb.com/title/tt0091200/
剧情:
该片是导演的半自传式电影,讲述了四个人到中年的好朋友回家乡参加葬礼,哀悼他们共同追求过的一个女生。影片闪回到50年代的纯真岁月,在南斯拉夫的土地上,四个朋友都是划船队员,偏偏爱上了同一个金发美女。美女愿意跟他们交朋友,但不想跟其中任何一人谈恋爱,她的恋爱对象是一个政治上雄心勃勃的男人。
影片细腻地刻画了初恋的感觉和同性的友谊,把一个普通的少年成长故事放到肃穆的政治大环境中。有一丝怀旧和风趣,同时也渗夹了对爱情和青春流逝的苦涩追忆。
**此片源帧率是25fps**
片+中字115网盘:http://115.com/lb/5lbbe43r7gpr
BT磁力(海盗湾,Bal na vodi [1981] domaci film):
magnet:?xt=urn:btih:17c780b5e32595dd05159452d149ede303749201&xl;=732516352
已调与此片源同步的中字幕:
http://subscene.com/subtitles/hey-babu-ribabal-na-vodi-dancing-in-water/chinese-bg-code/1020963

代码General
Complete name        : Bal na vodi by Cila65.avi
Format         : AVI
Format/Info        : Audio Video Interleave
File size        : 699 MiB
Duration         : 1h 44mn
Overall bit rate       : 932 Kbps
Writing application      : FairUse Wizard - http://fairusewizard.com
Writing library      : The best and REALLY easy backup tool
Video
ID           : 0
Format         : AVC
Format/Info        : Advanced Video Codec
Format profile       : Main@L5.1
Format settings, CABAC     : Yes
Format settings, ReFrames    : 2 frames
Codec ID         : H264
Duration         : 1h 44mn
Bit rate         : 730 Kbps
Width          : 512 pixels
Height         : 288 pixels
Display aspect ratio     : 16:9
Frame rate         : 25.000 fps
Color space        : YUV
Chroma subsampling     : 4:2:0
Bit depth        : 8 bits
Scan type        : Progressive
Bits/(Pixel*Frame)     : 0.198
Stream size        : 547 MiB (78%)
Writing library      : x264 core 58 svn-736bm
Encoding settings      : cabac=1 / ref=1 / deblock=1:0:0 / analyse=0x1:0x131 / me=hex / subme=5 / brdo=0 / mixed_ref=0 / me_range=16 / chroma_me=1 / trellis=1 / 8x8dct=0 / cqm=0 / deadzone=21,11 / chroma_qp_offset=0 / threads=2 / nr=0 / decimate=1 / mbaff=0 / bframes=2 / b_pyramid=0 / b_adapt=1 / b_bias=0 / direct=1 / wpredb=1 / bime=0 / keyint=250 / keyint_min=25 / scenecut=40(pre) / rc=2pass / bitrate=730 / ratetol=1.0 / rceq='blurCplx^(1-qComp)' / qcomp=0.60 / qpmin=10 / qpmax=51 / qpstep=4 / cplxblur=20.0 / qblur=0.5 / ip_ratio=1.40 / pb_ratio=1.30
Audio
ID           : 1
Format         : AC-3
Format/Info        : Audio Coding 3
Format profile       : Dolby Digital
Mode extension       : CM (complete main)
Format settings, Endianness  : Big
Codec ID         : 2000
Duration         : 1h 44mn
Bit rate mode        : Constant
Bit rate         : 192 Kbps
Channel(s)         : 2 channels
Channel positions      : Front: L R
Sampling rate        : 48.0 KHz
Bit depth        : 16 bits
Compression mode       : Lossy
Stream size        : 144 MiB (21%)
Alignment        : Split accross interleaves
Interleave, duration     : 40 ms (1.00 video frame)
Interleave, preload duration   : 500 ms
开始下载 《白兰的四个男人/水中共舞》( Bal na vodi/Hey Babu Riba / Бал на води / Dancing in Water)   1987
@是风精品资源 | 《白兰的四个男人/水中共舞》( Bal na vodi/Hey Babu Riba / Бал на води / Dancing in Water)   1987 下载页面
ed2k资源列表:
  • Bal.na.vodi.by.Cila65.avi
@是风精品资源 | 《白兰的四个男人/水中共舞》( Bal na vodi/Hey Babu Riba / Бал на води / Dancing in Water)   1987 下载页面

No Comments Allowed for Anonymous, please login or register
是风资源,如风分享 - Error

Error 500

Non-static method Content::stats() should not be called statically