《人望低处/欲望飞行/一场快乐的战争》( A Merry War/Keep the Aspidistra Flying)
Posted by Anonymous Thursday,9 October 2014 19:12:00
简介: 
《人望低处 / 欲望飞行(港) / 一场快乐的战争》( A Merry War / Keep the Aspidistra Flying)1997
导演: Robert Bierman
编剧: 艾伦·普拉特 / 乔治·奥威尔George Orwell
主演: 理查德·格兰特Richard E. Grant / 海伦娜·伯翰·卡特Helena Bonham Carter / 朱利安·沃德姆
类型: 剧情 / 喜剧 / 爱情
制片国家/地区: 英国
语言: 英语
上映日期: 1997-11-21(英国)
片长: 101 分钟
IMDb链接: tt0119453
剧情:
电影改编自乔治·奥威尔(George Orwell)的小说《Keep the Aspidistra Flying》。
英国三十年代,戈登是一个出身贫寒、但才华横溢的年轻人。他与女友罗斯玛丽一样都供职于新英格兰广告公司,老板十分爱惜戈登的工作才能,意欲提拔他做创意总监。但谁都没想到,戈登辞掉了广告公司的工作。青春冲动的他脑子里充满天真的想法,不为五斗米折腰,宁愿受穷也要专心写诗。他自以为才华横溢,恃才傲物,愤世嫉俗,其实根本不懂人情冷暖。为此,女友和朋友瑞沃斯想尽办法让戈登放弃幼稚的想法,但戈登却一意孤行。离职后的戈登生活窘迫,不得不向姐姐接钱生活。无奈之下,好友瑞沃斯只能给他介绍了另一份工作——在书店工作。
书店的工作并不让戈登满意,吝啬势利的女房东也让人十分不顺眼。在戈登看来周围的一切都是丑恶的,中产阶级的生活是腐朽的。但没有面包的爱情是不美满的,因为贫穷,戈登与女友罗斯玛丽的爱情经受着前所未有的考研。朋友瑞沃斯富裕的生活让他羡慕,但心中的理想却让他离现实社会越来越远。戈登不断受到来自生活的各种压力,而贫穷也让他的尊严遭受着威胁。在经历了一段苦日子之后,戈登终于收到了美国寄来的稿费。为了显示诗作的成功,他得意忘形扮阔佬,经受蔑视后,终于发狂出丑被捕入狱。
出狱后他被书店老板解雇,不得不在贫民窟一个小书店工作聊以生存。在那里,他不修边幅也不洗澡,自我放弃,却认为这是人最好的状态。戈登让周围所有的人都伤透了心,姐姐和好友瑞沃斯先后里他而去。好在其女友罗斯玛丽不放弃他,苦苦劝说他重回广告公司。戈登虽然不同意,但与罗斯玛丽的关系却更上一层楼。正当戈登沉醉在自己的世界中时,女友告诉他自己怀孕的消息,并让他作出选择。女友怀孕这件事情让戈登忽然清醒起来,他要重新调整自己的状态。
终于经过一番激烈的思想斗争,戈登决定放弃坚守清贫的愚蠢想法,重新回到广告公司。而此时他的亲人和朋友也回到了他身边,很快,戈登过上了中产阶级的生活。如今的他也成为金钱的奴隶了。
【片源是四条音轨,第二条应该是导评,第三、四条是部分纯音乐】
电影原声音乐 115网盘:
http://115.com/file/aqpjqvno

http://115.com/lb/5lbbxgqd8yqq
片+电影原声音乐 115网盘礼包:http://115.com/lb/5lbeltvulbzh
片 BT磁力(可百度网盘离线):
magnet:?xt=urn:btih:6823b3c0633e924925e73a7e90b0c44a185d1258&xl;=1474312192
字幕:网上有保加利亚字幕..............
ed2k://│file│A.Merry.War1997(George.Orwell--Keep.the.Aspidistra.Flying).avi│1474312192│CF65463C69781FFA10B225028D7AC611│/
General
Complete name : 人望低处.A Merry War1997(George Orwell--Keep the Aspidistra Flying).avi
Format : AVI
Format/Info : Audio Video Interleave
File size : 1.37 GiB
Duration : 1h 41mn
Overall bit rate : 1 931 Kbps
Writing application : VirtualDubMod 1.5.4.1 (build 2178/release)
Writing library : VirtualDubMod build 2178/release
Video
ID : 0
Format : MPEG-4 Visual
Format profile : Advanced Simple@L5
Format settings, BVOP : No
Format settings, QPel : No
Format settings, GMC : No warppoints
Format settings, Matrix : Custom
Codec ID : XVID
Codec ID/Hint : XviD
Duration : 1h 41mn
Bit rate : 1 361 Kbps
Width : 640 pixels
Height : 352 pixels
Display aspect ratio : 16:9
Frame rate : 23.976 fps
Color space : YUV
Chroma subsampling : 4:2:0
Bit depth : 8 bits
Scan type : Progressive
Compression mode : Lossy
Bits/(Pixel*Frame) : 0.252
Stream size : 991 MiB (70%)
Writing library : XviD 1.2.1 (UTC 2008-12-04)
Audio #1
ID : 1
Format : AC-3
Format/Info : Audio Coding 3
Mode extension : CM (complete main)
Format settings, Endianness : Big
Codec ID : 2000
Duration : 1h 41mn
Bit rate mode : Constant
Bit rate : 192 Kbps
Channel(s) : 2 channels
Channel positions : Front: L R
Sampling rate : 48.0 KHz
Bit depth : 16 bits
Compression mode : Lossy
Stream size : 140 MiB (10%)
Alignment : Split accross interleaves
Interleave, duration : 96 ms (2.30 video frames)
Interleave, preload duration : 96 ms
Audio #2
ID : 2
Format : MPEG Audio
Codec ID : 55
Codec ID/Hint : MP3
Duration : 1h 41mn
Bit rate : 107 Kbps
Channel(s) : 2 channels
Sampling rate : 48.0 KHz
Compression mode : Lossy
Stream size : 78.9 MiB (6%)
Alignment : Split accross interleaves
Interleave, duration : 24 ms (0.58 video frame)
Interleave, preload duration : 1814 ms
Language : English - Director's Comments
Audio #3
ID : 3
Format : MPEG Audio
Codec ID : 55
Codec ID/Hint : MP3
Duration : 1h 41mn
Bit rate : 119 Kbps
Channel(s) : 2 channels
Sampling rate : 48.0 KHz
Compression mode : Lossy
Stream size : 87.6 MiB (6%)
Alignment : Split accross interleaves
Interleave, duration : 24 ms (0.58 video frame)
Interleave, preload duration : 1623 ms
Audio #4
ID : 4
Format : MPEG Audio
Codec ID : 55
Codec ID/Hint : MP3
Duration : 1h 41mn
Bit rate : 117 Kbps
Channel(s) : 2 channels
Sampling rate : 48.0 KHz
Compression mode : Lossy
Stream size : 86.5 MiB (6%)
Alignment : Split accross interleaves
Interleave, duration : 24 ms (0.58 video frame)
Interleave, preload duration : 1654 ms
Language : English - Alternate Director's Comments
开始下载 《人望低处/欲望飞行/一场快乐的战争》( A Merry War/Keep the Aspidistra Flying)
@是风精品资源 | 《人望低处/欲望飞行/一场快乐的战争》( A Merry War/Keep the Aspidistra Flying) 下载页面
ed2k资源列表:
  • A.Merry.War1997(George.Orwell--Keep.the.Aspidistra.Flying).avi
@是风精品资源 | 《人望低处/欲望飞行/一场快乐的战争》( A Merry War/Keep the Aspidistra Flying) 下载页面

No Comments Allowed for Anonymous, please login or register
是风资源,如风分享 - Error

Error 500

Non-static method Content::stats() should not be called statically