《破晓时分/奥若拉/极光》( Aurora)
Posted by Anonymous Tuesday,7 October 2014 10:27:00
简介: 
《破晓时分 / 奥若拉 / 极光》( Aurora) 2010
导演: 克利斯提·普优 Cristi Puiu
编剧: 克利斯提·普优
主演: 克利斯提·普优 / Clara Voda / Catrinel Dumitrescu / 吕明妮塔·杰尔吉乌
类型: 剧情
制片国家/地区: 罗马尼亚 / 法国 / 瑞士 / 德国
语言: 罗马尼亚语
上映日期: 2010-05-14(戛纳电影节)
片长: 181分钟
IMDb链接: tt1403047
剧情:
在一所公寓的厨房中,一对夫妻为避免吵醒隔壁房中熟睡的女儿,低声谈论着小红帽的故事。郊区空地上,这个男人躲在一排废弃的拖车后静默地观察一群人,后者似乎是一家人。同一个城市,同一个男人:他带着两枚猎枪击针穿越在堵塞的车流中。男人42岁,名叫Viorel。他被自己阴暗的想法所震惊,穿越整个城市,前往只有他自己知道的一个目的地。
【片源是内嵌简中,Chs subbed】
百度网盘: http://pan.baidu.com/s/19YwLc
115网盘礼包: http://115.com/lb/5lbdie1vp0o5
ed2k://│file│奥若拉(罗马尼亚2010中字).rmvb│1038896830│720B33965C1B46CDD8262F6F4E75B6DF│/
General
Complete name : 奥若拉(罗马尼亚2010中字).rmvb
Format : RealMedia
File size : 991 MiB
Duration : 3h 3mn
Overall bit rate : 748 Kbps
Movie name : unknown
Performer : tiger-king-soft
Video
ID : 0
Format : RealVideo 4
Codec ID : RV40
Codec ID/Info : Based on AVC (H.264), Real Player 9
Duration : 3h 3mn
Bit rate : 652 Kbps
Width : 852 pixels
Height : 480 pixels
Display aspect ratio : 16:9
Frame rate : 23.976 fps
Bits/(Pixel*Frame) : 0.066
Stream size : 856 MiB (86%)
Audio
ID : 1
Format : Cooker
Codec ID : cook
Codec ID/Info : Based on G.722.1, Real Player 6
Duration : 3h 3mn
Bit rate : 96.5 Kbps
Channel(s) : 2 channels
Sampling rate : 44.1 KHz
Bit depth : 16 bits
Stream size : 127 MiB (13%)
开始下载 《破晓时分/奥若拉/极光》( Aurora)
@是风精品资源 | 《破晓时分/奥若拉/极光》( Aurora) 下载页面
ed2k资源列表:
  • 奥若拉(罗马尼亚2010中字).rmvb
@是风精品资源 | 《破晓时分/奥若拉/极光》( Aurora) 下载页面

No Comments Allowed for Anonymous, please login or register
是风资源,如风分享 - Error

Error 500

Non-static method Content::stats() should not be called statically