BBC剧《心战》(The Game )2014,更新至第1集
Posted by Anonymous Thursday,27 November 2014 23:30:00
简介: 
《心战》(The Game )2014
导演: Niall MacCormick
编剧: Toby Whithouse
主演: Gemma Chan / Brian Cox / Tom Hughes / Rachael Stirling
类型: 剧情 / 惊悚
官方网站: www.bbcamerica.com/the-game/
制片国家/地区: 英国
语言: 英语
首播: 2014-11-05
集数: 6
单集片长: 60分钟
IMDb链接(7.9分): http://www.imdb.com/title/tt3159736/
剧情:
冷战时期,一个叛变的克格勃泄露了代码为Operation Glass的惊天阴谋,于是颇具魅力但又偏执的MI5头儿,集结了Sarah,Jim等手下去调查真相。而另有一位叫Joe的探员加入,他天才却爱制造麻烦,能从细节读出人性。
(注:KGB:克格勃,是苏联时期国家安全委员会;MI5:英国军情五处(是世界上最具神秘色彩的谍报机构之一))
**片源是内嵌中英字**
【第一集】
百度网盘:http://pan.baidu.com/s/1eQGhwHG
115网盘 : http://115.com/lb/5lbanfq4fzr6
第一集字幕(或去其官网下载):
http://115.com/lb/5lbanfnuncir

http://subscene.com/subtitles/the-game-2014/chinese-bg-code/1019331
资源及字幕转自夏末秋字幕组:http://www.xmqzmz.org/thread-7325-1-1.html

代码General
Complete name : [心战.The Game][S01E01][中英双字]【夏末秋字幕组】.mp4
Format : MPEG-4
Format profile : Base Media
Codec ID : isom
File size : 669 MiB
Duration : 58mn 58s
Overall bit rate : 1 587 Kbps
Encoded date : UTC 2014-11-18 09:00:12
Tagged date : UTC 2014-11-18 09:00:12
Video
ID : 1
Format : AVC
Format/Info : Advanced Video Codec
Format profile : High@L3.1
Format settings, CABAC : Yes
Format settings, ReFrames : 4 frames
Codec ID : avc1
Codec ID/Info : Advanced Video Coding
Duration : 58mn 58s
Bit rate : 1 200 Kbps
Maximum bit rate : 7 405 Kbps
Width : 960 pixels
Height : 544 pixels
Display aspect ratio : 16:9
Frame rate mode : Constant
Frame rate : 25.000 fps
Color space : YUV
Chroma subsampling : 4:2:0
Bit depth : 8 bits
Scan type : Progressive
Bits/(Pixel*Frame) : 0.092
Stream size : 506 MiB (76%)
Writing library : x264 core 120 r2164 da19765
Encoding settings : cabac=1 / ref=3 / deblock=1:0:0 / analyse=0x3:0x113 / me=hex / subme=7 / psy=1 / psy_rd=1.00:0.00 / mixed_ref=1 / me_range=16 / chroma_me=1 / trellis=1 / 8x8dct=1 / cqm=0 / deadzone=21,11 / fast_pskip=1 / chroma_qp_offset=-2 / threads=3 / sliced_threads=0 / nr=0 / decimate=1 / interlaced=0 / bluray_compat=0 / constrained_intra=0 / bframes=3 / b_pyramid=2 / b_adapt=1 / b_bias=0 / direct=1 / weightb=1 / open_gop=0 / weightp=2 / keyint=250 / keyint_min=25 / scenecut=40 / intra_refresh=0 / rc_lookahead=40 / rc=2pass / mbtree=1 / bitrate=1200 / ratetol=1.0 / qcomp=0.60 / qpmin=0 / qpmax=69 / qpstep=4 / cplxblur=20.0 / qblur=0.5 / ip_ratio=1.40 / aq=1:1.00
Encoded date : UTC 2014-11-18 09:00:12
Tagged date : UTC 2014-11-18 09:00:56
Audio
ID : 2
Format : AC-3
Format/Info : Audio Coding 3
Mode extension : CM (complete main)
Format settings, Endianness : Big
Codec ID : ac-3
Duration : 58mn 57s
Bit rate mode : Constant
Bit rate : 384 Kbps
Channel(s) : 2 channels
Channel positions : Front: L R
Sampling rate : 44.1 KHz
Bit depth : 16 bits
Compression mode : Lossy
Stream size : 162 MiB (24%)
Encoded date : UTC 2014-11-18 09:00:45
Tagged date : UTC 2014-11-18 09:00:56
开始下载 BBC剧《心战》(The Game )2014,更新至第1集
@是风精品资源 | BBC剧《心战》(The Game )2014,更新至第1集 下载页面
ed2k资源列表:
  • [心战.The.Game][S01E01][中英双字]【夏末秋字幕组】.mp4
@是风精品资源 | BBC剧《心战》(The Game )2014,更新至第1集 下载页面

No Comments Allowed for Anonymous, please login or register
是风资源,如风分享 - Error

Error 500

Non-static method Content::stats() should not be called statically