我的家庭在世界革命中的角色 (1971)78分钟
Posted by Anonymous Saturday,29 November 2014 12:59:00
简介: 
《我的家庭在世界革命中的角色》(Uloga moje porodice u svjetskoj revoluciji / The Role of My Family in the World Revolution) 1971
导演: Bahrudin 'Bato' Cengic
编剧: Bahrudin 'Bato' Cengic / Bora Cosic
主演: 德拉甘·尼柯立克Dragan Nikolic
类型: 剧情
制片国家/地区: 南斯拉夫
语言: Serbian
上映日期: 1971
片长: 86 分钟
IMDb链接(6.9分): http://www.imdb.com/title/tt0181096/
(注:片源画质不好,内嵌英字,片长01:18:15,帧率25fps,YOUTUBE有在线)
【片+ 中字 115网盘】http://115.com/lb/5lbe7bjbb15h
【片+中字 百度网盘】http://pan.baidu.com/s/1dDnd109
【片 法国网盘】
http://uptobox.com/iit0ccuobkks
http://uptobox.com/f4sujrtmbo2t
【已调与此片源 大致与同步的中字】
http://subscene.com/subtitles/the-role-of-my-family-in-the-world-revolutionuloga-moje-porodice-u-svjetskoj-revoluciji/chinese-bg-code/1020151

捷克网盘:
http://ulozto.net/xfvGo3Zu/uloga-moje-porodice-u-svjetskoj-revoluciji-1971-25fps-01-18-15-cht-srt
【原字幕】http://www.subom.net/sinfo/122812

代码General
Complete name        : Uloga moje porodice u svjetskoj revoluciji (1971).avi
Format         : AVI
Format/Info        : Audio Video Interleave
File size        : 700 MiB
Duration         : 1h 18mn
Overall bit rate mode    : Variable
Overall bit rate       : 1 250 Kbps
Writing application      : VirtualDubMod 1.5.4.1 (build 2178/release)
Writing library      : VirtualDubMod build 2178/release
Video
ID           : 0
Format         : MPEG-4 Visual
Format profile       : Advanced Simple@L5
Format settings, BVOP    : Yes
Format settings, QPel    : No
Format settings, GMC     : No warppoints
Format settings, Matrix    : Custom
Codec ID         : XVID
Codec ID/Hint        : XviD
Duration         : 1h 18mn
Bit rate         : 1 079 Kbps
Width          : 720 pixels
Height         : 544 pixels
Display aspect ratio     : 4:3
Frame rate         : 25.000 fps
Color space        : YUV
Chroma subsampling     : 4:2:0
Bit depth        : 8 bits
Scan type        : Progressive
Compression mode       : Lossy
Bits/(Pixel*Frame)     : 0.110
Stream size        : 604 MiB (86%)
Writing library      : XviD 1.2.0.dev47 (UTC 2006-11-01)
Audio
ID           : 1
Format         : MPEG Audio
Format version       : Version 1
Format profile       : Layer 3
Mode           : Joint stereo
Mode extension       : MS Stereo
Codec ID         : 55
Codec ID/Hint        : MP3
Duration         : 1h 18mn
Bit rate mode        : Variable
Bit rate         : 157 Kbps
Nominal bit rate       : 176 Kbps
Channel(s)         : 2 channels
Sampling rate        : 48.0 KHz
Compression mode       : Lossy
Stream size        : 88.1 MiB (13%)
Alignment        : Aligned on interleaves
Interleave, duration     : 24 ms (0.60 video frame)
Interleave, preload duration   : 531 ms
Writing library      : LAME3.97
Encoding settings      : -m j -V 4 -q 2 -lowpass 18.6 --abr 176
开始下载 我的家庭在世界革命中的角色 (1971)78分钟
@是风精品资源 | 我的家庭在世界革命中的角色 (1971)78分钟 下载页面
ed2k资源列表:
  • Uloga.moje.porodice.u.svjetskoj.revoluciji.(1971).avi
@是风精品资源 | 我的家庭在世界革命中的角色 (1971)78分钟 下载页面

No Comments Allowed for Anonymous, please login or register
是风资源,如风分享 - Error

Error 500

Non-static method Content::stats() should not be called statically