《石婚》( Nunta de piatra / The Stone Wedding) 1972
Posted by Anonymous Sunday,30 November 2014 20:15:00
简介: 
《石婚》( Nunta de piatra / The Stone Wedding)1972
导演: Dan Pita / Mircea Veroiu
编剧: Ion Agarbiceanu
主演: Leopoldina Balanuta
制片国家/地区: 罗马尼亚
语言: 罗马尼亚语
上映日期: 1974-08-22
片长: 90 分钟
IMDb链接(8分): http://www.imdb.com/title/tt0069033/
**黑白片**
片+中字 115网盘:http://115.com/lb/5lban468voyr
片+中字 百度网盘:http://pan.baidu.com/s/1dDkv6wx
片 BT磁力:
magnet:?xt=urn:btih:77f5e0af02043439985237df5d14786745f228f1&xl;=734486604
中字:http://www.subom.net/sinfo/176266
代码

代码General
Complete name        : Nunta de Piatra (1972).avi
Format         : AVI
Format/Info        : Audio Video Interleave
File size        : 700 MiB
Duration         : 1h 21mn
Overall bit rate       : 1 207 Kbps
Writing library      : VirtualDub-MPEG2 build 23858/release
Video
ID           : 0
Format         : MPEG-4 Visual
Format settings, BVOP    : Yes
Format settings, QPel    : No
Format settings, GMC     : No warppoints
Format settings, Matrix    : Default (H.263)
Codec ID         : DX50
Codec ID/Hint        : DivX 5
Duration         : 1h 21mn
Bit rate         : 1 070 Kbps
Width          : 640 pixels
Height         : 480 pixels
Display aspect ratio     : 4:3
Frame rate         : 25.000 fps
Color space        : YUV
Chroma subsampling     : 4:2:0
Bit depth        : 8 bits
Scan type        : Progressive
Compression mode       : Lossy
Bits/(Pixel*Frame)     : 0.139
Stream size        : 621 MiB (89%)
Writing library      : DivX 6.5.0 (UTC 2006-12)
Audio
ID           : 1
Format         : MPEG Audio
Format version       : Version 1
Format profile       : Layer 3
Mode           : Joint stereo
Mode extension       : MS Stereo
Codec ID         : 55
Codec ID/Hint        : MP3
Duration         : 1h 21mn
Bit rate mode        : Constant
Bit rate         : 128 Kbps
Channel(s)         : 2 channels
Sampling rate        : 44.1 KHz
Compression mode       : Lossy
Stream size        : 74.3 MiB (11%)
Alignment        : Split accross interleaves
Interleave, duration     : 40 ms (1.00 video frame)
Interleave, preload duration   : 500 ms

开始下载 《石婚》( Nunta de piatra / The Stone Wedding) 1972
@是风精品资源 | 《石婚》( Nunta de piatra / The Stone Wedding) 1972 下载页面
ed2k资源列表:
  • Nunta.de.Piatra.(1972).avi
@是风精品资源 | 《石婚》( Nunta de piatra / The Stone Wedding) 1972 下载页面

No Comments Allowed for Anonymous, please login or register
是风资源,如风分享 - Error

Error 500

Non-static method Content::stats() should not be called statically