CCATV六點鐘新聞[2014-10-12][粵語中字]
Posted by Anonymous Tuesday,14 October 2014 09:40:00
简介: 
ATV仲算客观,还有良知的报道了10月12号一位香港公安非礼(袭胸)女沾中者...
https://www.facebook.com/video.php?v=492323677576250
BT磁力:
magnet:?xt=urn:btih:dd80d8cf0244a27d1880a13eaa9fbebf68634246&xl;=221605937
ed2k://│file│ATV六點鐘新聞2014-10-12.rmvb│221605937│9403A895255DBBB2470058EC44CDC0A2│/
ed2k://│file│ATV六點鐘新聞.[2014-10-12][TV-RMVB][粵語中字].torrent│19338│BA219325E172B9198D562A0639569142│/
#############################################################
"we are HongKongers !We are peaceful! We fight for freedom and democracy!"
       --------轉自墻外
#############################################################
歌《問誰未發聲》(港版,改编自歌:《Do You Hear the People Sing》)
試問誰還未發聲
都捨我其誰衛我城
天生有權還有心可作主
誰要認命噤聲
試問誰能未覺醒
聽真那自由在奏鳴
激起再難違背的那份良知和應
為何美夢仍是個夢 還想等恩賜泡影
為這黑與白這非與是 真與偽來做證
為這世代有未來 要及時擦亮眼睛
無人有權沉默 看著萬家燈火變了色
問我心再用我手 去為選我命途力拼
人既是人 有責任有自由決定遠景
#############################################################
General
Complete name        : ATV六點鐘新聞2014-10-12.rmvb
Format         : RealMedia
File size        : 211 MiB
Duration         : 32mn 48s
Overall bit rate       : 873 Kbps
Video
ID           : 1
Format         : RealVideo 4
Codec ID         : RV40
Codec ID/Info        : Based on AVC (H.264), Real Player 9
Duration         : 32mn 48s
Bit rate         : 809 Kbps
Width          : 720 pixels
Height         : 404 pixels
Display aspect ratio     : 16:9
Frame rate         : 25.000 fps
Bits/(Pixel*Frame)     : 0.111
Stream size        : 190 MiB (90%)
Audio
ID           : 0
Format         : Cooker
Codec ID         : cook
Codec ID/Info        : Based on G.722.1, Real Player 6
Duration         : 32mn 49s
Bit rate         : 64.1 Kbps
Channel(s)         : 2 channels
Sampling rate        : 44.1 KHz
Bit depth        : 16 bits
Stream size        : 15.0 MiB (7%)
开始下载 CCATV六點鐘新聞[2014-10-12][粵語中字]
@是风精品资源 | CCATV六點鐘新聞[2014-10-12][粵語中字] 下载页面
ed2k资源列表:
  • ATV六點鐘新聞2014-10-12.rmvb
  • ATV六點鐘新聞.[2014-10-12][TV-RMVB][粵語中字].torrent
@是风精品资源 | CCATV六點鐘新聞[2014-10-12][粵語中字] 下载页面

No Comments Allowed for Anonymous, please login or register
是风资源,如风分享 - Error

Error 500

Non-static method Content::stats() should not be called statically