《博物馆的来访者 》(Posetitel muzeya / Посетитель музея / Visitor of a Museum) 1989
Posted by Anonymous Sunday,30 November 2014 20:27:00
简介: 
《博物馆的来访者 》(Posetitel muzeya / Посетитель музея /Visitor of a Museum) 1989
导演: 康斯坦丁·罗普桑斯基
编剧: 康斯坦丁·罗普桑斯基
主演: 维克多·索科洛夫 / Vera Mayorova.
类型: 剧情
制片国家/地区: 苏联 / 西德 / 瑞士
语言: 俄语
上映日期: 1990.6.
片长: 125分钟
IMDb链接(7.3分): http://www.imdb.com/title/tt0173024/
俄网站kinopoisk(7.2分):http://www.kinopoisk.ru/film/43137/
片+中字115网盘:http://115.com/lb/5lbe7n070oqs
片+中字百度网盘:http://pan.baidu.com/s/1sj18bfB
BT磁力:
magnet:?xt=urn:btih:1acfbcf8c45a2246c527ba3badd0f723f90287a0&xl;=781115392
中字:http://www.subom.net/sinfo/185065

代码General
Complete name        : posetitel_muzeya_745_[torrents.ru]_by_bm11.avi
Format         : AVI
Format/Info        : Audio Video Interleave
File size        : 745 MiB
Duration         : 2h 8mn
Overall bit rate       : 814 Kbps
Director         : bm11
Writing application      : VirtualDubMod 1.5.10.2 (build 2540/release)
Video
ID           : 0
Format         : MPEG-4 Visual
Format profile       : Simple@L3
Format settings, BVOP    : Yes
Format settings, QPel    : No
Format settings, GMC     : No warppoints
Format settings, Matrix    : Default (H.263)
Codec ID         : XVID
Codec ID/Hint        : XviD
Duration         : 2h 8mn
Bit rate         : 676 Kbps
Width          : 640 pixels
Height         : 448 pixels
Display aspect ratio     : 1.429
Frame rate         : 25.000 fps
Color space        : YUV
Chroma subsampling     : 4:2:0
Bit depth        : 8 bits
Scan type        : Progressive
Compression mode       : Lossy
Bits/(Pixel*Frame)     : 0.094
Stream size        : 619 MiB (83%)
Writing library      : XviD 1.0.3 (UTC 2004-12-20)
Audio
ID           : 1
Format         : MPEG Audio
Format version       : Version 1
Format profile       : Layer 3
Mode           : Joint stereo
Mode extension       : MS Stereo
Codec ID         : 55
Codec ID/Hint        : MP3
Duration         : 2h 8mn
Bit rate mode        : Constant
Bit rate         : 128 Kbps
Channel(s)         : 2 channels
Sampling rate        : 48.0 KHz
Compression mode       : Lossy
Stream size        : 117 MiB (16%)
Alignment        : Aligned on interleaves
Interleave, duration     : 40 ms (1.00 video frame)
Interleave, preload duration   : 504 ms
开始下载 《博物馆的来访者 》(Posetitel muzeya / Посетитель музея / Visitor of a Museum) 1989
@是风精品资源 | 《博物馆的来访者 》(Posetitel muzeya / Посетитель музея / Visitor of a Museum) 1989 下载页面
ed2k资源列表:
  • posetitel_muzeya_745_[torrents.ru]_by_bm11.avi
@是风精品资源 | 《博物馆的来访者 》(Posetitel muzeya / Посетитель музея / Visitor of a Museum) 1989 下载页面

No Comments Allowed for Anonymous, please login or register
是风资源,如风分享 - Error

Error 500

Non-static method Content::stats() should not be called statically