《风琴》(Organ) 1965
Posted by Anonymous Sunday,30 November 2014 20:58:00
简介: 
《风琴》(Organ)1965
导演: Stefan Uher
编剧: Alfonz Bednár
主演: Frantisek Bubik / Alexandr Brezina / Hana Maciuchová
类型: 剧情
制片国家/地区: Czechoslovakia
语言: 斯洛伐克语 / 波兰语
上映日期: 1965-01-22
片长: 99 分钟
IMDb链接(7.6分): http://www.imdb.com/title/tt0133139/
**黑白片**
片+中字 115网盘:http://115.com/lb/5lbbe8yiedsv
片 BT磁力(海盗湾):
magnet:?xt=urn:btih:a4e8013f933acbb954432cdfabfbb1a9c19ffa58&xl;=734095357
中字:http://www.subom.net/sinfo/130294

代码General
Complete name        : Organ.1964.DVDRip.XviD.LS.avi
Format         : AVI
Format/Info        : Audio Video Interleave
File size        : 700 MiB
Duration         : 1h 31mn
Overall bit rate mode    : Variable
Overall bit rate       : 1 070 Kbps
Writing application      : VirtualDubMod 1.5.4.1 (build 2178/release)
Writing library      : VirtualDubMod build 2178/release
Video
ID           : 0
Format         : MPEG-4 Visual
Format profile       : Advanced Simple@L5
Format settings, BVOP    : Yes
Format settings, QPel    : No
Format settings, GMC     : No warppoints
Format settings, Matrix    : Custom
Codec ID         : XVID
Codec ID/Hint        : XviD
Duration         : 1h 31mn
Bit rate         : 936 Kbps
Width          : 688 pixels
Height         : 304 pixels
Display aspect ratio     : 2.25:1
Frame rate         : 25.000 fps
Color space        : YUV
Chroma subsampling     : 4:2:0
Bit depth        : 8 bits
Scan type        : Progressive
Compression mode       : Lossy
Bits/(Pixel*Frame)     : 0.179
Stream size        : 612 MiB (87%)
Writing library      : XviD 1.2.0.dev47 (UTC 2006-11-01)
Audio
ID           : 1
Format         : MPEG Audio
Format version       : Version 1
Format profile       : Layer 3
Mode           : Joint stereo
Codec ID         : 55
Codec ID/Hint        : MP3
Duration         : 1h 31mn
Bit rate mode        : Variable
Bit rate         : 121 Kbps
Nominal bit rate       : 144 Kbps
Channel(s)         : 2 channels
Sampling rate        : 48.0 KHz
Compression mode       : Lossy
Stream size        : 79.1 MiB (11%)
Alignment        : Aligned on interleaves
Interleave, duration     : 24 ms (0.60 video frame)
Interleave, preload duration   : 568 ms
Writing library      : LAME3.97
Encoding settings      : -m j -V 4 -q 2 -lowpass 17.5 --abr 144
Language         : Slovak
开始下载 《风琴》(Organ) 1965
@是风精品资源 | 《风琴》(Organ) 1965 下载页面
ed2k资源列表:
  • Organ.1964.DVDRip.XviD.LS.avi
@是风精品资源 | 《风琴》(Organ) 1965 下载页面

No Comments Allowed for Anonymous, please login or register
是风资源,如风分享 - Error

Error 500

Non-static method Content::stats() should not be called statically