《带黑色标记的白鸟》(Bilyy ptakh z chornoyu vidznakoyu / Белая птица с черной отметиной / The White Bird Marked with Black) 1971
Posted by Anonymous Sunday,30 November 2014 22:43:00
简介: 
《带黑色标记的白鸟 / 被染黑的白鸟》(Bilyy ptakh z chornoyu vidznakoyu / Белая птица с черной отметиной / The White Bird Marked with Black/ Belaya ptitsa s chyornoy otmetinoy)1971
导演: 尤里·伊利延科
编剧: 尤里·伊利延科 / Ivan Mikolajchuk
主演: Larisa Kadochnikova / Ivan Mikolajchuk / 鲍格丹·斯图普卡 / Yuri Mikolajchuk / Natalya Naum / 更多...
类型: 剧情 / 战争
制片国家/地区: 苏联
语言: Ukrainian
上映日期: 1972-11-24
片长: 99 分钟
IMDb链接(7.3分): http://www.imdb.com/title/tt0165636/
俄网站(7.6分):http://www.kinopoisk.ru/film/46134/
【两个片源版本SATRip 和DVDRip,字幕时间轴都不同】
片 SATRip 115网盘:(转自:http://www.douban.com/group/topic/21725444/)
http://115.com/file/aqzkvfpf
http://115.com/file/bhzf666t
片 SATRip 中字:http://www.subom.net/sinfo/174629
片 SATRip + 中字115网盘:http://115.com/lb/5lbanhebmefm
——————————————————————————————————————————
片 DVDRip + 中字115网盘:http://115.com/lb/5lbanhe2xnk7
片 DVDRip + 中字百度网盘:http://pan.baidu.com/s/1gdvgOOr
片BT磁力:
magnet:?xt=urn:btih:9d0cce96d16944ec6ee3c6cd2d72e7a103538173&xl;=780623026
片 DVDRip 中字(已调,大致同步):
http://subscene.com/subtitles/the-white-bird-marked-with-black--bilyy-ptakh-z-chornoyu-vidznakoyu/chinese-bg-code/1020822

https://drive.google.com/file/d/0B2v-2X0A1PklSGY0R1pCY1lZQ1U/view?usp=sharing

代码General
Complete name        : Belaya.Ptica.s.Chernoy.Otmetinoy.avi 【DVDRip】
Format         : AVI
Format/Info          : Audio Video Interleave
File size        : 744 MiB
Duration           : 1h 32mn
Overall bit rate       : 1 121 Kbps
Video
ID             : 0
Format         : MPEG-4 Visual
Format profile         : Advanced Simple@L5
Format settings, BVOP    : Yes
Format settings, QPel    : No
Format settings, GMC       : No warppoints
Format settings, Matrix      : Default (H.263)
Codec ID           : XVID
Codec ID/Hint        : XviD
Duration           : 1h 32mn
Bit rate           : 997 Kbps
Width            : 576 pixels
Height         : 432 pixels
Display aspect ratio       : 4:3
Frame rate         : 25.000 fps
Color space          : YUV
Chroma subsampling     : 4:2:0
Bit depth        : 8 bits
Scan type        : Progressive
Compression mode       : Lossy
Bits/(Pixel*Frame)     : 0.160
Stream size          : 662 MiB (89%)
Writing library      : XviD 1.1.2 (UTC 2006-11-01)
Audio
ID             : 1
Format         : MPEG Audio
Format version         : Version 1
Format profile         : Layer 3
Mode           : Joint stereo
Mode extension         : MS Stereo
Codec ID           : 55
Codec ID/Hint        : MP3
Duration           : 1h 32mn
Source duration      : 1h 32mn
Bit rate mode        : Constant
Bit rate           : 112 Kbps
Channel(s)         : 2 channels
Sampling rate        : 44.1 KHz
Compression mode       : Lossy
Stream size          : 74.4 MiB (10%)
Alignment        : Split accross interleaves
Interleave, duration       : 26 ms (0.65 video frame)
开始下载 《带黑色标记的白鸟》(Bilyy ptakh z chornoyu vidznakoyu / Белая птица с черной отметиной / The White Bird Marked with Black) 1971
@是风精品资源 | 《带黑色标记的白鸟》(Bilyy ptakh z chornoyu vidznakoyu / Белая птица с черной отметиной / The White Bird Marked with Black) 1971 下载页面
ed2k资源列表:
  • Belaya.Ptica.s.Chernoy.Otmetinoy【DVDRip】 .avi
@是风精品资源 | 《带黑色标记的白鸟》(Bilyy ptakh z chornoyu vidznakoyu / Белая птица с черной отметиной / The White Bird Marked with Black) 1971 下载页面

No Comments Allowed for Anonymous, please login or register
是风资源,如风分享 - Error

Error 500

Non-static method Content::stats() should not be called statically