《上帝的笔误》( Los renglones torcidos de Dios ) 1983
Posted by Anonymous Sunday,23 November 2014 19:42:00
简介: 
《上帝的笔误》( Los renglones torcidos de Dios )1983
导演: Tulio Demicheli
编剧: Torcuato Luca de Tena(小说作者)
主演: Lucía Méndez
类型: 剧情 / 悬疑 / 惊悚
制片国家/地区: 墨西哥
语言: 西班牙语
上映日期: 1983-09-29
片长: 103分鐘
IMDb链接(6.3分): http://www.imdb.com/title/tt0224005/
剧情:
一个美丽的女人进入精神病院,她聪明机敏,富有爱心,逐渐与性格沉稳的医生,穿牛仔裤的修女护士,惧水年轻病人等多人建立起良好的关系,赢得他们的热爱.与此同时,她竭力向她的同伴证明她来到精神病院是作为侦探来揭穿其中隐藏的阴谋.但最终的事实原来是她饱受丈夫不忠之苦,由此产生了精神上的问题.当事实揭露出来之时,她终于清醒,但她决意留在精神病院中,同时等待她的还有相互爱慕的医生.本片既揭露了精神病院的肉体刑罚,同时又表现了所谓的'病人'们其实很多是无害的,受过伤害的,对于外界不适应的一群可爱人类.
本片根据西班牙作家Torcuato Luca de Tena(卢卡.德代纳)同名小说改编.北方文艺出版社1985-01-01出版.
上海电影译制厂1991年译制.
**片源国语西班牙语双音轨**
【115网盘】http://115.com/lb/5lbeoktf4dx3
【百度网盘】http://pan.baidu.com/s/1mgzanji
【复制链接至迅雷离线下载即可(解析的百度网盘真实下载地址)】
http://t.cn/RzUvIvZ

http://cm.dl.baidupcs.com/file/5eb37dc56ed24f47f74e799a71271dac?bkt=p2-qd-396&fid;=2320896659-250528-221843831897687&time;=1416740848&sign;=FDTAXERB-DCb740ccc5511e5e8fedcff06b081203-5Q4Kf4O72daowXh9iklvnNe14GY%3D&to;=scp&fm;=Nan,B,M,mn&newver;=1&newfm;=1&flow;_ver=3&expires;=8h&rt;=sh&r;=780035269&mlogid;=3450696589&vuk;=-&vbdid;=2925054116&fin;=%E4%B8%8A%E5%B8%9D%E7%9A%84%E7%AC%94%E8%AF%AF%281983%29%E5%9B%BD%E8%AF%AD%E8%A5%BF%E7%8F%AD%E7%89%99%E8%AF%AD.mkv&fn;=%E4%B8%8A%E5%B8%9D%E7%9A%84%E7%AC%94%E8%AF%AF%281983%29%E5%9B%BD%E8%AF%AD%E8%A5%BF%E7%8F%AD%E7%89%99%E8%AF%AD.mkv
代码General
Unique ID : 197319500266520550947013389911471992032 (0x94725A79916DC6E1BEF6CC014F88ACE0)
Complete name : 上帝的笔误(1983)国语西班牙语双音轨.mkv
Format : Matroska
Format version : Version 2
File size : 739 MiB
Duration : 1h 42mn
Overall bit rate : 1 005 Kbps
Encoded date : UTC 2012-10-14 10:46:19
Writing application : mkvmerge v5.8.0 ('No Sleep / Pillow') built on Sep2 2012 15:37:04
Writing library : libebml v1.2.3 + libmatroska v1.3.0
Video
ID : 1
Format : MPEG-4 Visual
Format profile : Advanced Simple@L5
Format settings, BVOP : Yes
Format settings, QPel : No
Format settings, GMC : No warppoints
Format settings, Matrix : Custom
Codec ID : V_MS/VFW/FOURCC / XVID
Codec ID/Hint : XviD
Duration : 1h 42mn
Bit rate : 729 Kbps
Width : 560 pixels
Height : 416 pixels
Display aspect ratio : 4:3
Frame rate mode : Constant
Frame rate : 29.970 fps
Color space : YUV
Chroma subsampling : 4:2:0
Bit depth : 8 bits
Scan type : Progressive
Compression mode : Lossy
Bits/(Pixel*Frame) : 0.104
Stream size : 536 MiB (73%)
Writing library : XviD 1.2.1 (UTC 2008-12-04)
Default : Yes
Forced : No
Audio #1
ID : 2
Format : AC-3
Format/Info : Audio Coding 3
Mode extension : CM (complete main)
Format settings, Endianness : Big
Muxing mode : Header stripping
Codec ID : A_AC3
Duration : 1h 42mn
Bit rate mode : Constant
Bit rate : 128 Kbps
Channel(s) : 2 channels
Channel positions : Front: L R
Sampling rate : 48.0 KHz
Bit depth : 16 bits
Compression mode : Lossy
Stream size : 94.0 MiB (13%)
Title : 国语
Language : Chinese
Default : Yes
Forced : No
Audio #2
ID : 3
Format : MPEG Audio
Format version : Version 1
Format profile : Layer 3
Mode : Joint stereo
Mode extension : MS Stereo
Muxing mode : Header stripping
Codec ID : A_MPEG/L3
Codec ID/Hint : MP3
Duration : 1h 42mn
Bit rate mode : Constant
Bit rate : 128 Kbps
Channel(s) : 2 channels
Sampling rate : 48.0 KHz
Compression mode : Lossy
Stream size : 94.0 MiB (13%)
Title : 西班牙语
Writing library : LAME3.98r
Encoding settings : -m j -V 4 -q 2 -lowpass 17 -b 128
Language : 国语西班牙语双音轨
Default : No
Forced : No
开始下载 《上帝的笔误》( Los renglones torcidos de Dios ) 1983
@是风精品资源 | 《上帝的笔误》( Los renglones torcidos de Dios ) 1983 下载页面
ed2k资源列表:
  • 上帝的笔误(1983)国语西班牙语.mkv
@是风精品资源 | 《上帝的笔误》( Los renglones torcidos de Dios ) 1983 下载页面

No Comments Allowed for Anonymous, please login or register
是风资源,如风分享 - Error

Error 500

Non-static method Content::stats() should not be called statically